*************************
 
HomeCalendarFAQSearchMemberlistUsergroupsRegisterLog in

Share | 
 

 [MV] Girls' Generation - Tell Me Your Wish (Genie) (Full HD GOMTV) (AVI/239.35 MB]

Go down 
AuthorMessage
bambi
Admin
avatar

จำนวนข้อความ : 63
Join date : 2012-07-20

PostSubject: [MV] Girls' Generation - Tell Me Your Wish (Genie) (Full HD GOMTV) (AVI/239.35 MB]   Sat Jul 21, 2012 11:08 am



Code:
General
Complete name                            : [MV] Girls' Generation - Tell Me Your Wish (Genie) (Full HD GOMTV) [bambimirimvdownload].avi
Format                                  : AVI
Format/Info                              : Audio Video Interleave
File size                                : 239 MiB
Duration                                : 4mn 0s
Overall bit rate                        : 8 337 Kbps
Writing application                      : GOM Encoder (GAviWriter 1.0)

Video
ID                                      : 0
Format                                  : MPEG-4 Visual
Format profile                          : Simple@L1
Format settings, BVOP                    : No
Format settings, QPel                    : No
Format settings, GMC                    : No warppoints
Format settings, Matrix                  : Default (H.263)
Codec ID                                : XVID
Codec ID/Hint                            : XviD
Duration                                : 4mn 0s
Bit rate                                : 8 006 Kbps
Width                                    : 1 920 pixels
Height                                  : 1 080 pixels
Display aspect ratio                    : 16:9
Frame rate                              : 23.976 fps
Color space                              : YUV
Chroma subsampling                      : 4:2:0
Bit depth                                : 8 bits
Scan type                                : Progressive
Compression mode                        : Lossy
Bits/(Pixel*Frame)                      : 0.161
Stream size                              : 230 MiB (96%)
Writing library                          : Lavc52.10.0

Audio
ID                                      : 1
Format                                  : MPEG Audio
Format version                          : Version 1
Format profile                          : Layer 3
Mode                                    : Joint stereo
Codec ID                                : 55
Codec ID/Hint                            : MP3
Duration                                : 4mn 0s
Bit rate mode                            : Constant
Bit rate                                : 320 Kbps
Channel(s)                              : 2 channels
Sampling rate                            : 44.1 KHz
Compression mode                        : Lossy
Stream size                              : 9.19 MiB (4%)
Alignment                                : Aligned on interleaves
Interleave, duration                    : 26 ms (0.63 video frame)
Interleave, preload duration            : 130 ms
Writing library                          : LAME3.97 (beta)

[You must be registered and logged in to see this link.]
[You must be registered and logged in to see this link.]

[You must be registered and logged in to see this link.]

"P.S File Name To Download = 120707.03"

...................................................


[You must be registered and logged in to see this link.] :: [You must be registered and logged in to see this link.]
Back to top Go down
View user profile http://bambimiri.thai-forum.net
 
[MV] Girls' Generation - Tell Me Your Wish (Genie) (Full HD GOMTV) (AVI/239.35 MB]
Back to top 
Page 1 of 1

Permissions in this forum:You cannot reply to topics in this forum
 :: Music Vedio :: K-MV-
Jump to: