*************************
 
HomeCalendarFAQSearchMemberlistUsergroupsRegisterLog in

Share | 
 

 [MV] Girls' Generation - Tell Me Your Wish (Genie) (Full HD Melon) [MP4/290.82 MB]

Go down 
AuthorMessage
bambi
Admin
avatar

จำนวนข้อความ : 63
Join date : 2012-07-20

PostSubject: [MV] Girls' Generation - Tell Me Your Wish (Genie) (Full HD Melon) [MP4/290.82 MB]   Sat Jul 21, 2012 11:14 am



Code:
General
Complete name                            : [MV] Girls' Generation - Tell Me Your Wish (Genie) (Full HD Melon) [bambimirimvdownload].mp4
Format                                  : MPEG-4
Format profile                          : Base Media / Version 2
Codec ID                                : mp42
File size                                : 291 MiB
Duration                                : 4mn 0s
Overall bit rate mode                    : Variable
Overall bit rate                        : 10.1 Mbps
Encoded date                            : UTC 2010-04-24 07:53:23
Tagged date                              : UTC 2010-04-24 07:53:23
Writing library                          : Apple QuickTime
Xtra                                    : WM/MediaClassPrimaryID

Video
ID                                      : 1
Format                                  : AVC
Format/Info                              : Advanced Video Codec
Format profile                          : Main@L5.0
Format settings, CABAC                  : No
Format settings, ReFrames                : 6 frames
Codec ID                                : avc1
Codec ID/Info                            : Advanced Video Coding
Duration                                : 4mn 0s
Source duration                          : 4mn 0s
Bit rate mode                            : Variable
Bit rate                                : 9 593 Kbps
Maximum bit rate                        : 10.0 Mbps
Width                                    : 1 920 pixels
Height                                  : 1 080 pixels
Display aspect ratio                    : 16:9
Frame rate mode                          : Constant
Frame rate                              : 29.970 fps
Standard                                : Component
Color space                              : YUV
Chroma subsampling                      : 4:2:0
Bit depth                                : 8 bits
Scan type                                : Progressive
Bits/(Pixel*Frame)                      : 0.154
Stream size                              : 275 MiB (95%)
Source stream size                      : 287 MiB (99%)
Language                                : English
Encoded date                            : UTC 2010-04-24 07:53:23
Tagged date                              : UTC 2010-04-24 07:53:23
mdhd_Duration                            : 240807

Audio
ID                                      : 2
Format                                  : AAC
Format/Info                              : Advanced Audio Codec
Format profile                          : LC
Codec ID                                : 40
Duration                                : 4mn 0s
Bit rate mode                            : Variable
Bit rate                                : 128 Kbps
Maximum bit rate                        : 134 Kbps
Channel(s)                              : 2 channels
Channel positions                        : Front: L R
Sampling rate                            : 44.1 KHz
Compression mode                        : Lossy
Stream size                              : 3.67 MiB (1%)
Language                                : English
Encoded date                            : UTC 2010-04-24 07:53:23
Tagged date                              : UTC 2010-04-24 07:53:23

[You must be registered and logged in to see this link.]
[You must be registered and logged in to see this link.]

[You must be registered and logged in to see this link.]

"P.S File Name To Download = 120707.04"

...................................................


[You must be registered and logged in to see this link.] :: [You must be registered and logged in to see this link.]
Back to top Go down
View user profile http://bambimiri.thai-forum.net
 
[MV] Girls' Generation - Tell Me Your Wish (Genie) (Full HD Melon) [MP4/290.82 MB]
Back to top 
Page 1 of 1
 Similar topics
-
» Pokemon 5th Generation Sneak Peek!
» Are you American or Japanese? [Girls ONLY]
» Closing of Generation 4 and Opening of Generation 5
» The Blogs: 4th Generation
» Skavenblight's Pirate Girls!

Permissions in this forum:You cannot reply to topics in this forum
 :: Music Vedio :: K-MV-
Jump to: