*************************
 
HomeCalendarFAQSearchMemberlistUsergroupsRegisterLog in

Share | 
 

 [MV] Girls' Generation - Oh! (Full HD Melon) [MP4/256.41 MB)]

Go down 
AuthorMessage
bambi
Admin
avatar

จำนวนข้อความ : 63
Join date : 2012-07-20

PostSubject: [MV] Girls' Generation - Oh! (Full HD Melon) [MP4/256.41 MB)]   Sat Jul 21, 2012 12:10 pm



Code:
General
Complete name                            : [MV] Girls' Generation - Oh! (Full HD Melon) [bambimirimvdownload].mp4
Format                                  : MPEG-4
Format profile                          : Base Media / Version 2
Codec ID                                : mp42
File size                                : 256 MiB
Duration                                : 3mn 34s
Overall bit rate mode                    : Variable
Overall bit rate                        : 10.0 Mbps
Encoded date                            : UTC 2010-04-29 06:34:45
Tagged date                              : UTC 2010-04-29 06:34:45
Writing library                          : Apple QuickTime
Xtra                                    : WM/MediaClassPrimaryID

Video
ID                                      : 1
Format                                  : AVC
Format/Info                              : Advanced Video Codec
Format profile                          : Main@L5.0
Format settings, CABAC                  : No
Format settings, ReFrames                : 6 frames
Codec ID                                : avc1
Codec ID/Info                            : Advanced Video Coding
Duration                                : 3mn 34s
Source duration                          : 3mn 34s
Bit rate mode                            : Variable
Bit rate                                : 9 514 Kbps
Maximum bit rate                        : 10.0 Mbps
Width                                    : 1 920 pixels
Height                                  : 1 080 pixels
Display aspect ratio                    : 16:9
Frame rate mode                          : Constant
Frame rate                              : 29.970 fps
Standard                                : Component
Color space                              : YUV
Chroma subsampling                      : 4:2:0
Bit depth                                : 8 bits
Scan type                                : Progressive
Bits/(Pixel*Frame)                      : 0.153
Stream size                              : 243 MiB (95%)
Source stream size                      : 253 MiB (99%)
Language                                : English
Encoded date                            : UTC 2010-04-29 06:34:45
Tagged date                              : UTC 2010-04-29 06:34:45
mdhd_Duration                            : 214047

Audio
ID                                      : 2
Format                                  : AAC
Format/Info                              : Advanced Audio Codec
Format profile                          : LC
Codec ID                                : 40
Duration                                : 3mn 34s
Bit rate mode                            : Variable
Bit rate                                : 128 Kbps
Maximum bit rate                        : 135 Kbps
Channel(s)                              : 2 channels
Channel positions                        : Front: L R
Sampling rate                            : 44.1 KHz
Compression mode                        : Lossy
Stream size                              : 3.27 MiB (1%)
Language                                : English
Encoded date                            : UTC 2010-04-29 06:34:45
Tagged date                              : UTC 2010-04-29 06:34:45

[You must be registered and logged in to see this link.]
[You must be registered and logged in to see this link.]

[You must be registered and logged in to see this link.]

"P.S File Name To Download = 120716.03"

...................................................


[You must be registered and logged in to see this link.] :: [You must be registered and logged in to see this link.]
Back to top Go down
View user profile http://bambimiri.thai-forum.net
 
[MV] Girls' Generation - Oh! (Full HD Melon) [MP4/256.41 MB)]
Back to top 
Page 1 of 1

Permissions in this forum:You cannot reply to topics in this forum
 :: Music Vedio :: K-MV-
Jump to: