*************************
 
HomeCalendarFAQSearchMemberlistUsergroupsRegisterLog in

Share | 
 

 [MV] 2NE1 - I LOVE YOU (Full HD GOMTV) [AVI/310.91 MB]

Go down 
AuthorMessage
bambi
Admin
avatar

จำนวนข้อความ : 63
Join date : 2012-07-20

PostSubject: [MV] 2NE1 - I LOVE YOU (Full HD GOMTV) [AVI/310.91 MB]   Sat Jul 21, 2012 12:43 pm



Code:
General
Complete name                            : [MV] 2NE1 - I LOVE YOU (Full HD GOMTV) [bambimirimvdownload].avi
Format                                  : AVI
Format/Info                              : Audio Video Interleave
File size                                : 311 MiB
Duration                                : 4mn 10s
Overall bit rate                        : 10.4 Mbps
Writing application                      : GOM ENCODER (GAviWriter 1.0)

Video
ID                                      : 0
Format                                  : MPEG-4 Visual
Format profile                          : Simple@L1
Format settings, BVOP                    : No
Format settings, QPel                    : No
Format settings, GMC                    : No warppoints
Format settings, Matrix                  : Default (H.263)
Codec ID                                : XVID
Codec ID/Hint                            : XviD
Duration                                : 4mn 10s
Bit rate                                : 10.1 Mbps
Width                                    : 1 920 pixels
Height                                  : 1 080 pixels
Display aspect ratio                    : 16:9
Frame rate                              : 23.976 fps
Color space                              : YUV
Chroma subsampling                      : 4:2:0
Bit depth                                : 8 bits
Scan type                                : Progressive
Compression mode                        : Lossy
Bits/(Pixel*Frame)                      : 0.203
Stream size                              : 302 MiB (97%)
Writing library                          : Lavc52.110.0

Audio
ID                                      : 1
Format                                  : MPEG Audio
Format version                          : Version 1
Format profile                          : Layer 3
Mode                                    : Joint stereo
Mode extension                          : MS Stereo
Codec ID                                : 55
Codec ID/Hint                            : MP3
Duration                                : 4mn 10s
Bit rate mode                            : Constant
Bit rate                                : 32.0 Kbps
Channel(s)                              : 2 channels
Sampling rate                            : 44.1 KHz
Compression mode                        : Lossy
Stream size                              : 9.02 MiB (3%)
Alignment                                : Aligned on interleaves
Interleave, duration                    : 26 ms (0.63 video frame)
Interleave, preload duration            : 2 ms
Writing library                          : LAME3.98.4

[You must be registered and logged in to see this link.]
[You must be registered and logged in to see this link.]

[You must be registered and logged in to see this link.]

"P.S File Name To Download = 120714.10"

...................................................


[You must be registered and logged in to see this link.] :: [You must be registered and logged in to see this link.]
Back to top Go down
View user profile http://bambimiri.thai-forum.net
equinox
Member
Member


จำนวนข้อความ : 1
Join date : 2012-09-04

PostSubject: Re: [MV] 2NE1 - I LOVE YOU (Full HD GOMTV) [AVI/310.91 MB]   Tue Sep 04, 2012 5:15 am

many thanks ka
Back to top Go down
View user profile
 
[MV] 2NE1 - I LOVE YOU (Full HD GOMTV) [AVI/310.91 MB]
Back to top 
Page 1 of 1

Permissions in this forum:You cannot reply to topics in this forum
 :: Music Vedio :: K-MV-
Jump to: