*************************
 
HomeCalendarFAQSearchMemberlistUsergroupsRegisterLog in

Share | 
 

 [MV] 2NE1 - I LOVE YOU (HD Youtube) [MP4/161.60 MB]

Go down 
AuthorMessage
bambi
Admin
avatar

จำนวนข้อความ : 63
Join date : 2012-07-20

PostSubject: [MV] 2NE1 - I LOVE YOU (HD Youtube) [MP4/161.60 MB]   Sat Jul 21, 2012 12:46 pm



Code:
General
Complete name                            : [MV] 2NE1 - I LOVE YOU [bambimirimvdownload].mp4
Format                                  : MPEG-4
Format profile                          : Base Media / Version 2
Codec ID                                : mp42
File size                                : 162 MiB
Duration                                : 4mn 8s
Overall bit rate mode                    : Variable
Overall bit rate                        : 5 446 Kbps
Encoded date                            : UTC 2012-07-06 05:13:27
Tagged date                              : UTC 2012-07-06 05:13:27
gsst                                    : 0
gstd                                    : 249033
gssd                                    : B3D5B084AHH1341638191005146
gshh                                    : o-o.preferred.asiainfo-bkk2.v15.lscache3.c.youtube.com
Xtra                                    : WM/MediaClassPrimaryID

Video
ID                                      : 1
Format                                  : AVC
Format/Info                              : Advanced Video Codec
Format profile                          : High@L4.0
Format settings, CABAC                  : Yes
Format settings, ReFrames                : 1 frame
Format settings, GOP                    : M=1, N=48
Codec ID                                : avc1
Codec ID/Info                            : Advanced Video Coding
Duration                                : 4mn 8s
Bit rate                                : 5 295 Kbps
Maximum bit rate                        : 8 980 Kbps
Width                                    : 1 920 pixels
Height                                  : 1 080 pixels
Display aspect ratio                    : 16:9
Frame rate mode                          : Constant
Frame rate                              : 23.976 fps
Color space                              : YUV
Chroma subsampling                      : 4:2:0
Bit depth                                : 8 bits
Scan type                                : Progressive
Bits/(Pixel*Frame)                      : 0.107
Stream size                              : 157 MiB (97%)
Tagged date                              : UTC 2012-07-06 05:13:27

Audio
ID                                      : 2
Format                                  : AAC
Format/Info                              : Advanced Audio Codec
Format profile                          : LC
Codec ID                                : 40
Duration                                : 4mn 8s
Bit rate mode                            : Variable
Bit rate                                : 148 Kbps
Maximum bit rate                        : 201 Kbps
Channel(s)                              : 2 channels
Channel positions                        : Front: L R
Sampling rate                            : 44.1 KHz
Compression mode                        : Lossy
Stream size                              : 4.40 MiB (3%)
Title                                    : IsoMedia File Produced by Google, 5-11-2011
Encoded date                            : UTC 2012-07-06 05:13:27
Tagged date                              : UTC 2012-07-06 05:13:27

[You must be registered and logged in to see this link.]

[You must be registered and logged in to see this link.]

"P.S File Name To Download = 120707.02"

...................................................


[You must be registered and logged in to see this link.] :: [You must be registered and logged in to see this link.]
Back to top Go down
View user profile http://bambimiri.thai-forum.net
 
[MV] 2NE1 - I LOVE YOU (HD Youtube) [MP4/161.60 MB]
Back to top 
Page 1 of 1

Permissions in this forum:You cannot reply to topics in this forum
 :: Music Vedio :: K-MV-
Jump to: