*************************
 
HomeCalendarFAQSearchMemberlistUsergroupsRegisterLog in

Share | 
 

  [PV] Girls' Generation - Time Machine (HD Youtube) [MP4/180.82 MB]

Go down 
AuthorMessage
bambi
Admin
avatar

จำนวนข้อความ : 63
Join date : 2012-07-20

PostSubject: [PV] Girls' Generation - Time Machine (HD Youtube) [MP4/180.82 MB]   Sat Jul 21, 2012 2:02 pm



Code:
General
Complete name                            : [PV] Girls' Generation - Time Machine [bambimirimvdownload].mp4
Format                                  : MPEG-4
Format profile                          : Base Media / Version 2
Codec ID                                : mp42
File size                                : 181 MiB
Duration                                : 5mn 38s
Overall bit rate mode                    : Variable
Overall bit rate                        : 4 477 Kbps
Encoded date                            : UTC 2012-03-18 06:07:42
Tagged date                              : UTC 2012-03-18 06:07:42
gsst                                    : 0
gstd                                    : 338848
gssd                                    : B3D5B09C5HH1332138716313658
gshh                                    : o-o.preferred.asiainfo-bkk1.v18.lscache4.c.youtube.com

Video
ID                                      : 1
Format                                  : AVC
Format/Info                              : Advanced Video Codec
Format profile                          : High@L4.0
Format settings, CABAC                  : Yes
Format settings, ReFrames                : 1 frame
Format settings, GOP                    : M=1, N=30
Codec ID                                : avc1
Codec ID/Info                            : Advanced Video Coding
Duration                                : 5mn 38s
Bit rate                                : 4 329 Kbps
Maximum bit rate                        : 15.3 Mbps
Width                                    : 1 920 pixels
Height                                  : 1 080 pixels
Display aspect ratio                    : 16:9
Frame rate mode                          : Constant
Frame rate                              : 29.970 fps
Color space                              : YUV
Chroma subsampling                      : 4:2:0
Bit depth                                : 8 bits
Scan type                                : Progressive
Bits/(Pixel*Frame)                      : 0.070
Stream size                              : 175 MiB (97%)
Tagged date                              : UTC 2012-03-18 06:07:43

Audio
ID                                      : 2
Format                                  : AAC
Format/Info                              : Advanced Audio Codec
Format profile                          : LC
Codec ID                                : 40
Duration                                : 5mn 38s
Bit rate mode                            : Variable
Bit rate                                : 144 Kbps
Maximum bit rate                        : 217 Kbps
Channel(s)                              : 2 channels
Channel positions                        : Front: L R
Sampling rate                            : 44.1 KHz
Compression mode                        : Lossy
Stream size                              : 5.89 MiB (3%)
Title                                    : IsoMedia File Produced by Google, 5-11-2011
Encoded date                            : UTC 2012-03-18 06:07:43
Tagged date                              : UTC 2012-03-18 06:07:43

[You must be registered and logged in to see this link.]

[You must be registered and logged in to see this link.]

"P.S File Name To Download = 120714.07"

...................................................


[You must be registered and logged in to see this link.] :: [You must be registered and logged in to see this link.]
Back to top Go down
View user profile http://bambimiri.thai-forum.net
 
[PV] Girls' Generation - Time Machine (HD Youtube) [MP4/180.82 MB]
Back to top 
Page 1 of 1

Permissions in this forum:You cannot reply to topics in this forum
 :: Music Vedio :: J-PV-
Jump to: