*************************
 
HomeCalendarFAQSearchMemberlistUsergroupsRegisterLog in

Share | 
 

 [PV] Girls' Generation - PAPARAZZI (Dance Ver.) (HD Youtube) [MP4/170.05 MB]

Go down 
AuthorMessage
bambi
Admin
avatar

จำนวนข้อความ : 63
Join date : 2012-07-20

PostSubject: [PV] Girls' Generation - PAPARAZZI (Dance Ver.) (HD Youtube) [MP4/170.05 MB]   Sat Jul 21, 2012 2:18 pm



Code:
General
Complete name                            : [PV] Girls' Generation - PAPARAZZI (Dance Ver.) [bambimirimvdownload].mp4
Format                                  : MPEG-4
Format profile                          : Base Media / Version 2
Codec ID                                : mp42
File size                                : 170 MiB
Duration                                : 3mn 53s
Overall bit rate mode                    : Variable
Overall bit rate                        : 6 107 Kbps
Encoded date                            : UTC 2012-06-12 06:58:28
Tagged date                              : UTC 2012-06-12 06:58:28
gsst                                    : 0
gstd                                    : 233708
gssd                                    : B3D5B080BHH1339686631986458
gshh                                    : o-o.preferred.asiainfo-bkk1.v24.lscache1.c.youtube.com

Video
ID                                      : 1
Format                                  : AVC
Format/Info                              : Advanced Video Codec
Format profile                          : High@L4.0
Format settings, CABAC                  : Yes
Format settings, ReFrames                : 1 frame
Codec ID                                : avc1
Codec ID/Info                            : Advanced Video Coding
Duration                                : 3mn 53s
Bit rate                                : 5 954 Kbps
Maximum bit rate                        : 11.3 Mbps
Width                                    : 1 920 pixels
Height                                  : 1 080 pixels
Display aspect ratio                    : 16:9
Frame rate mode                          : Constant
Frame rate                              : 23.976 fps
Color space                              : YUV
Chroma subsampling                      : 4:2:0
Bit depth                                : 8 bits
Scan type                                : Progressive
Bits/(Pixel*Frame)                      : 0.120
Stream size                              : 166 MiB (97%)
Tagged date                              : UTC 2012-06-12 06:58:47

Audio
ID                                      : 2
Format                                  : AAC
Format/Info                              : Advanced Audio Codec
Format profile                          : LC
Codec ID                                : 40
Duration                                : 3mn 53s
Bit rate mode                            : Variable
Bit rate                                : 151 Kbps
Maximum bit rate                        : 240 Kbps
Channel(s)                              : 2 channels
Channel positions                        : Front: L R
Sampling rate                            : 44.1 KHz
Compression mode                        : Lossy
Stream size                              : 4.21 MiB (2%)
Title                                    : IsoMedia File Produced by Google, 5-11-2011
Encoded date                            : UTC 2012-06-12 06:58:39
Tagged date                              : UTC 2012-06-12 06:58:47

[You must be registered and logged in to see this link.]

[You must be registered and logged in to see this link.]

"P.S File Name To Download = 120714.02"

...................................................


[You must be registered and logged in to see this link.] :: [You must be registered and logged in to see this link.]
Back to top Go down
View user profile http://bambimiri.thai-forum.net
 
[PV] Girls' Generation - PAPARAZZI (Dance Ver.) (HD Youtube) [MP4/170.05 MB]
Back to top 
Page 1 of 1
 Similar topics
-
» Are you American or Japanese? [Girls ONLY]
» YouTube clips
» Pokemon 5th Generation Sneak Peek!
» Youtube Rayquaza Advertisement Clip
» Slender Nation Youtube Channel Ideas. NEED THEM

Permissions in this forum:You cannot reply to topics in this forum
 :: Music Vedio :: J-PV-
Jump to: