*************************
 
HomeCalendarFAQSearchMemberlistUsergroupsRegisterLog in

Share | 
 

 [PV] Girls' Generation - PAPARAZZI (Dance Edit GOLD Ver.) (HD Youtube) [MP4/170.95 MB]

Go down 
AuthorMessage
bambi
Admin
avatar

จำนวนข้อความ : 63
Join date : 2012-07-20

PostSubject: [PV] Girls' Generation - PAPARAZZI (Dance Edit GOLD Ver.) (HD Youtube) [MP4/170.95 MB]   Sat Jul 21, 2012 2:21 pm



Code:
General
Complete name                            : [PV] Girls' Generation - PAPARAZZI (Dance Edit GOLD Ver.) [bambimirimvdownload].mp4
Format                                  : MPEG-4
Format profile                          : Base Media / Version 2
Codec ID                                : mp42
File size                                : 171 MiB
Duration                                : 3mn 56s
Overall bit rate mode                    : Variable
Overall bit rate                        : 6 069 Kbps
Encoded date                            : UTC 2012-06-20 19:13:54
Tagged date                              : UTC 2012-06-20 19:13:54
gsst                                    : 0
gstd                                    : 236378
gssd                                    : B3D5B09C5HH1340369889736799
gshh                                    : o-o.preferred.asiainfo-bkk1.v18.lscache1.c.youtube.com

Video
ID                                      : 1
Format                                  : AVC
Format/Info                              : Advanced Video Codec
Format profile                          : High@L4.0
Format settings, CABAC                  : Yes
Format settings, ReFrames                : 1 frame
Codec ID                                : avc1
Codec ID/Info                            : Advanced Video Coding
Duration                                : 3mn 56s
Bit rate                                : 5 918 Kbps
Maximum bit rate                        : 10.8 Mbps
Width                                    : 1 920 pixels
Height                                  : 1 080 pixels
Display aspect ratio                    : 16:9
Frame rate mode                          : Constant
Frame rate                              : 23.976 fps
Color space                              : YUV
Chroma subsampling                      : 4:2:0
Bit depth                                : 8 bits
Scan type                                : Progressive
Bits/(Pixel*Frame)                      : 0.119
Stream size                              : 167 MiB (98%)
Tagged date                              : UTC 2012-06-20 19:13:54

Audio
ID                                      : 2
Format                                  : AAC
Format/Info                              : Advanced Audio Codec
Format profile                          : LC
Codec ID                                : 40
Duration                                : 3mn 56s
Bit rate mode                            : Variable
Bit rate                                : 149 Kbps
Maximum bit rate                        : 229 Kbps
Channel(s)                              : 2 channels
Channel positions                        : Front: L R
Sampling rate                            : 44.1 KHz
Compression mode                        : Lossy
Stream size                              : 4.19 MiB (2%)
Title                                    : IsoMedia File Produced by Google, 5-11-2011
Encoded date                            : UTC 2012-06-20 19:13:54
Tagged date                              : UTC 2012-06-20 19:13:54

[You must be registered and logged in to see this link.]

[You must be registered and logged in to see this link.]

"P.S File Name To Download = 120714.03"

...................................................


[You must be registered and logged in to see this link.] :: [You must be registered and logged in to see this link.]
Back to top Go down
View user profile http://bambimiri.thai-forum.net
 
[PV] Girls' Generation - PAPARAZZI (Dance Edit GOLD Ver.) (HD Youtube) [MP4/170.95 MB]
Back to top 
Page 1 of 1
 Similar topics
-
» Pokemon 5th Generation Sneak Peek!
» Follow up review of the Gold Lion KT66's..... :}
» NS Genelex Gold Lion KT66 owners: BEWARE!!
» I tried a set of Gold Lion KT66 tubes?????
» Are you American or Japanese? [Girls ONLY]

Permissions in this forum:You cannot reply to topics in this forum
 :: Music Vedio :: J-PV-
Jump to: