*************************
 
HomeCalendarFAQSearchMemberlistUsergroupsRegisterLog in

Share | 
 

  [PV] Girls' Generation - PAPARAZZI (HD Youtube) [MP4/237.56 MB]

Go down 
AuthorMessage
bambi
Admin
avatar

จำนวนข้อความ : 63
Join date : 2012-07-20

PostSubject: [PV] Girls' Generation - PAPARAZZI (HD Youtube) [MP4/237.56 MB]   Sat Jul 21, 2012 3:07 pm



Code:
General
Complete name                            :[PV] Girls' Generation - PAPARAZZI [bambimirimvdownload].mp4
Format                                  : MPEG-4
Format profile                          : Base Media / Version 2
Codec ID                                : mp42
File size                                : 238 MiB
Duration                                : 6mn 36s
Overall bit rate mode                    : Variable
Overall bit rate                        : 5 022 Kbps
Encoded date                            : UTC 2012-06-12 06:26:32
Tagged date                              : UTC 2012-06-12 06:26:32
gsst                                    : 0
gstd                                    : 396921
gssd                                    : B3D5B0944HH1339686315078765
gshh                                    : o-o.preferred.asiainfo-bkk1.v17.lscache4.c.youtube.com

Video
ID                                      : 1
Format                                  : AVC
Format/Info                              : Advanced Video Codec
Format profile                          : High@L4.0
Format settings, CABAC                  : Yes
Format settings, ReFrames                : 1 frame
Codec ID                                : avc1
Codec ID/Info                            : Advanced Video Coding
Duration                                : 6mn 36s
Bit rate                                : 4 869 Kbps
Maximum bit rate                        : 11.9 Mbps
Width                                    : 1 920 pixels
Height                                  : 1 080 pixels
Display aspect ratio                    : 16:9
Frame rate mode                          : Constant
Frame rate                              : 23.976 fps
Color space                              : YUV
Chroma subsampling                      : 4:2:0
Bit depth                                : 8 bits
Scan type                                : Progressive
Bits/(Pixel*Frame)                      : 0.098
Stream size                              : 230 MiB (97%)
Tagged date                              : UTC 2012-06-12 06:26:33

Audio
ID                                      : 2
Format                                  : AAC
Format/Info                              : Advanced Audio Codec
Format profile                          : LC
Codec ID                                : 40
Duration                                : 6mn 36s
Bit rate mode                            : Variable
Bit rate                                : 151 Kbps
Maximum bit rate                        : 233 Kbps
Channel(s)                              : 2 channels
Channel positions                        : Front: L R
Sampling rate                            : 44.1 KHz
Compression mode                        : Lossy
Stream size                              : 7.15 MiB (3%)
Title                                    : IsoMedia File Produced by Google, 5-11-2011
Encoded date                            : UTC 2012-06-12 06:26:33
Tagged date                              : UTC 2012-06-12 06:26:33

[You must be registered and logged in to see this link.]
[You must be registered and logged in to see this link.]

[You must be registered and logged in to see this link.]

"P.S File Name To Download = 120713.01"

...................................................


[You must be registered and logged in to see this link.] :: [You must be registered and logged in to see this link.]
Back to top Go down
View user profile http://bambimiri.thai-forum.net
 
[PV] Girls' Generation - PAPARAZZI (HD Youtube) [MP4/237.56 MB]
Back to top 
Page 1 of 1

Permissions in this forum:You cannot reply to topics in this forum
 :: Music Vedio :: J-PV-
Jump to: