*************************
 
HomeCalendarFAQSearchMemberlistUsergroupsRegisterLog in

Share | 
 

 [MV] Girls' Generation - Run Devil Run (Story Ver.) (Full HD Melon) [MP4/275.05 MB]

Go down 
AuthorMessage
bambi
Admin
avatar

จำนวนข้อความ : 63
Join date : 2012-07-20

PostSubject: [MV] Girls' Generation - Run Devil Run (Story Ver.) (Full HD Melon) [MP4/275.05 MB]   Sat Jul 21, 2012 3:48 pm



Code:
General
Complete name                            : [MV] Girls' Generation - Run Devil Run (Story Ver.) (Full HD Melon) [bambimirimvdownload].mp4
Format                                  : MPEG-4
Format profile                          : Base Media / Version 2
Codec ID                                : mp42
File size                                : 275 MiB
Duration                                : 3mn 48s
Overall bit rate mode                    : Variable
Overall bit rate                        : 10.1 Mbps
Movie name                              : Run Devil Run (Story Version) [bambimir.blogspot]
Album/Performer                          : [MV] Girls' Generation
Performer                                : [MV] Girls' Generation
Genre                                    : Genre_148
Encoded date                            : UTC 2010-04-19 06:07:59
Tagged date                              : UTC 2010-04-19 06:07:59
Writing library                          : Apple QuickTime
Xtra                                    : WM/MediaClassPrimaryID

Video
ID                                      : 1
Format                                  : AVC
Format/Info                              : Advanced Video Codec
Format profile                          : Main@L5.0
Format settings, CABAC                  : No
Format settings, ReFrames                : 6 frames
Codec ID                                : avc1
Codec ID/Info                            : Advanced Video Coding
Duration                                : 3mn 48s
Source duration                          : 3mn 48s
Bit rate mode                            : Variable
Bit rate                                : 9 574 Kbps
Maximum bit rate                        : 10.0 Mbps
Width                                    : 1 920 pixels
Height                                  : 1 080 pixels
Display aspect ratio                    : 16:9
Frame rate mode                          : Constant
Frame rate                              : 29.970 fps
Standard                                : Component
Color space                              : YUV
Chroma subsampling                      : 4:2:0
Bit depth                                : 8 bits
Scan type                                : Progressive
Bits/(Pixel*Frame)                      : 0.154
Stream size                              : 260 MiB (95%)
Source stream size                      : 271 MiB (99%)
Language                                : English
Encoded date                            : UTC 2010-04-19 06:07:59
Tagged date                              : UTC 2010-04-19 06:07:59
mdhd_Duration                            : 228195

Audio
ID                                      : 2
Format                                  : AAC
Format/Info                              : Advanced Audio Codec
Format profile                          : LC
Codec ID                                : 40
Duration                                : 3mn 47s
Bit rate mode                            : Variable
Bit rate                                : 128 Kbps
Maximum bit rate                        : 134 Kbps
Channel(s)                              : 2 channels
Channel positions                        : Front: L R
Sampling rate                            : 44.1 KHz
Compression mode                        : Lossy
Stream size                              : 3.48 MiB (1%)
Language                                : English
Encoded date                            : UTC 2010-04-19 06:07:59
Tagged date                              : UTC 2010-04-19 06:07:59

[You must be registered and logged in to see this link.]
[You must be registered and logged in to see this link.]

[You must be registered and logged in to see this link.]

"P.S File Name To Download = 120720.03"

...................................................


[You must be registered and logged in to see this link.] :: [You must be registered and logged in to see this link.]
Back to top Go down
View user profile http://bambimiri.thai-forum.net
 
[MV] Girls' Generation - Run Devil Run (Story Ver.) (Full HD Melon) [MP4/275.05 MB]
Back to top 
Page 1 of 1
 Similar topics
-
» Pokemon 5th Generation Sneak Peek!
» Third Doctor & Sea Devil Review
» Are you American or Japanese? [Girls ONLY]
» A Short Imperial Guard Story [revised]
» Closing of Generation 4 and Opening of Generation 5

Permissions in this forum:You cannot reply to topics in this forum
 :: Music Vedio :: K-MV-
Jump to: