*************************
 
HomeCalendarFAQSearchMemberlistUsergroupsRegisterLog in

Share | 
 

 [MV] Girls' Generation - Tell Me Your Wish (Genie) (Bugs HD) [AVI/296.24 MB]

Go down 
AuthorMessage
bambi
Admin
avatar

จำนวนข้อความ : 63
Join date : 2012-07-20

PostSubject: [MV] Girls' Generation - Tell Me Your Wish (Genie) (Bugs HD) [AVI/296.24 MB]   Sat Jul 21, 2012 10:57 am



Code:
General
Complete name                            : [MV] Girls' Generation - Tell Me Your Wish (Genie) (Bugs HD) [bambimirimvdownload].avi
Format                                  : AVI
Format/Info                              : Audio Video Interleave
File size                                : 296 MiB
Duration                                : 4mn 0s
Overall bit rate                        : 10.3 Mbps
Writing library                  : VirtualDub-MPEG2 build 18121/release

Video
ID                                      : 0
Format                                  : AVC
Format/Info                              : Advanced Video Codec
Format profile                          : High@L4.0
Format settings, CABAC                  : Yes
Format settings, ReFrames                : 2 frames
Codec ID                                : H264
Duration                                : 4mn 0s
Bit rate                                : 10 000 Kbps
Width                                    : 1 920 pixels
Height                                  : 1 080 pixels
Display aspect ratio                    : 16:9
Frame rate                              : 23.976 fps
Color space                              : YUV
Chroma subsampling                      : 4:2:0
Bit depth                                : 8 bits
Scan type                                : Progressive
Bits/(Pixel*Frame)                      : 0.201
Stream size                              : 287 MiB (97%)
Writing library                          : x264 core 68 r1195bm 5d75a9b
Encoding settings                        : cabac=1 / ref=1 / deblock=1:0:0 / analyse=0x3:0x113 / me=hex / subme=4 / psy_rd=0.0:0.0 / mixed_ref=0 / me_range=16 / chroma_me=0 / trellis=1 / 8x8dct=1 / cqm=0 / deadzone=21,11 / chroma_qp_offset=0 / threads=1 / thread_queue=1 / nr=0 / decimate=1 / mbaff=0 / bframes=2 / b_pyramid=0 / b_adapt=1 / b_bias=0 / direct=3 / wpredb=1 / keyint=250 / keyint_min=25 / scenecut=40 / rc=abr / bitrate=10000 / ratetol=1.0 / qcomp=0.60 / qpmin=10 / qpmax=51 / qpstep=4 / ip_ratio=1.40 / pb_ratio=1.30 / aq=2:1.00

Audio
ID                                      : 1
Format                                  : MPEG Audio
Format version                          : Version 1
Format profile                          : Layer 3
Mode                                    : Joint stereo
Codec ID                                : 55
Codec ID/Hint                            : MP3
Duration                                : 4mn 0s
Bit rate mode                            : Constant
Bit rate                                : 320 Kbps
Channel(s)                              : 2 channels
Sampling rate                            : 44.1 KHz
Compression mode                        : Lossy
Stream size                              : 9.18 MiB (3%)
Alignment                                : Split accross interleaves
Interleave, duration                    : 41 ms (0.99 video frame)
Interleave, preload duration            : 500 ms

[You must be registered and logged in to see this link.]
[You must be registered and logged in to see this link.]

[You must be registered and logged in to see this link.]

"P.S File Name To Download = 120707.05"

...................................................


[You must be registered and logged in to see this link.] :: [You must be registered and logged in to see this link.]
Back to top Go down
View user profile http://bambimiri.thai-forum.net
 
[MV] Girls' Generation - Tell Me Your Wish (Genie) (Bugs HD) [AVI/296.24 MB]
Back to top 
Page 1 of 1

Permissions in this forum:You cannot reply to topics in this forum
 :: Music Vedio :: K-MV-
Jump to: