*************************
 
HomeCalendarFAQSearchMemberlistUsergroupsRegisterLog in

Share | 
 

 [MV] 2NE1 - I LOVE YOU (Melon HD) [MP4/238.12 MB]

Go down 
AuthorMessage
bambi
Admin
avatar

จำนวนข้อความ : 63
Join date : 2012-07-20

PostSubject: [MV] 2NE1 - I LOVE YOU (Melon HD) [MP4/238.12 MB]   Sat Jul 21, 2012 12:44 pm



Code:
General
Complete name                            : [MV] 2NE1 - I LOVE YOU (Melon HD) [bambimirimvdownload].mp4
Format                                  : MPEG-4
Format profile                          : Base Media / Version 2
Codec ID                                : mp42
File size                                : 238 MiB
Duration                                : 4mn 8s
Overall bit rate mode                    : Variable
Overall bit rate                        : 8 025 Kbps
Encoded date                            : UTC 2012-07-07 09:49:03
Tagged date                              : UTC 2012-07-07 09:49:03
ฉTIM                                    : 00;00;00;00

Video
ID                                      : 1
Format                                  : AVC
Format/Info                              : Advanced Video Codec
Format profile                          : High@L5.1
Format settings, CABAC                  : Yes
Format settings, ReFrames                : 3 frames
Codec ID                                : avc1
Codec ID/Info                            : Advanced Video Coding
Duration                                : 4mn 8s
Bit rate mode                            : Constant
Bit rate                                : 8 000 Kbps
Width                                    : 1 280 pixels
Height                                  : 720 pixels
Display aspect ratio                    : 16:9
Frame rate mode                          : Constant
Frame rate                              : 29.970 fps
Standard                                : NTSC
Color space                              : YUV
Chroma subsampling                      : 4:2:0
Bit depth                                : 8 bits
Scan type                                : Progressive
Bits/(Pixel*Frame)                      : 0.290
Stream size                              : 232 MiB (98%)
Language                                : English
Encoded date                            : UTC 2012-07-07 09:49:03
Tagged date                              : UTC 2012-07-07 09:49:03
Color primaries                          : BT.709-5, BT.1361, IEC 61966-2-4, SMPTE RP177
Transfer characteristics                : BT.709-5, BT.1361
Matrix coefficients                      : BT.709-5, BT.1361, IEC 61966-2-4 709, SMPTE RP177

Audio
ID                                      : 2
Format                                  : AAC
Format/Info                              : Advanced Audio Codec
Format profile                          : LC
Codec ID                                : 40
Duration                                : 4mn 8s
Source duration                          : 4mn 8s
Bit rate mode                            : Variable
Bit rate                                : 192 Kbps
Maximum bit rate                        : 305 Kbps
Channel(s)                              : 2 channels
Channel positions                        : Front: L R
Sampling rate                            : 48.0 KHz
Compression mode                        : Lossy
Stream size                              : 5.62 MiB (2%)
Source stream size                      : 5.62 MiB (2%)
Language                                : English
Encoded date                            : UTC 2012-07-07 09:49:03
Tagged date                              : UTC 2012-07-07 09:49:03

[You must be registered and logged in to see this link.]
[You must be registered and logged in to see this link.]

[You must be registered and logged in to see this link.]

"P.S File Name To Download = 120715.01"

...................................................


[You must be registered and logged in to see this link.] :: [You must be registered and logged in to see this link.]
Back to top Go down
View user profile http://bambimiri.thai-forum.net
alex_frey7
Member
Member
avatar

จำนวนข้อความ : 3
Join date : 2012-07-24

PostSubject: Re: [MV] 2NE1 - I LOVE YOU (Melon HD) [MP4/238.12 MB]   Tue Jul 24, 2012 11:38 am

Thank you Bambi Smile

I follow you here since your old blog can't be opened Sad

I Hope you always bring us nice MV Video

Thank you Bambi, for all of your hard works these years Smile
Back to top Go down
View user profile
 
[MV] 2NE1 - I LOVE YOU (Melon HD) [MP4/238.12 MB]
Back to top 
Page 1 of 1

Permissions in this forum:You cannot reply to topics in this forum
 :: Music Vedio :: K-MV-
Jump to: